Logo Logo
/// 

Adobe Premiere Pro 5.5 - Import von Nikon Clips



Noch was unklar? Dann in unserem Forum nachfragen
Zum Original-Thread / Zum Adobe Premiere Pro / Elements / SpeedGrade / Creative Cloud CC-Forum

Frage von Tequila:


Hallo,
ich habe ein Problem beim Import von Videos, die mit einer Nikon D7100 gedreht wurden. Nach dem Importieren ist das Video einfach mal grün, der Ton hat keine Probleme.
Seltsamerweise gibt es mit Clips die parallel mit einer Nikon D800 gedreht wurden keinerlei Probleme. MediaInfo sagt zu den Videocodecs folgendes:

Nikon D7100 Clips, funktionieren nicht:

Format : MPEG-4
Format profile : QuickTime
Codec ID : qt
File size : 15.3 MiB
Duration : 5s 640ms
Overall bit rate : 22.7 Mbps
Encoded date : UTC 2015-08-16 08:19:11
Tagged date : UTC 2015-08-19 09:30:53
NCDT : NCTG

Video
ID : 1
Format : AVC
Format/Info : Advanced Video Codec
Format profile : High@L4.1
Format settings, CABAC : Yes
Format settings, ReFrames : 2 frames
Codec ID : avc1
Codec ID/Info : Advanced Video Coding
Duration : 5s 640ms
Bit rate mode : Variable
Bit rate : 20.7 Mbps
Width : 1 280 pixels
Height : 720 pixels
Display aspect ratio : 16:9
Frame rate mode : Constant
Frame rate : 50.000 fps
Color space : YUV
Chroma subsampling : 4:2:0
Bit depth : 8 bits
Scan type : Progressive
Bits/(Pixel*Frame) : 0.449
Stream size : 13.9 MiB (91%)
Language : English
Encoded date : UTC 2015-08-16 08:19:11
Tagged date : UTC 2015-08-16 08:19:11
Color primaries : BT.709-5, BT.1361, IEC 61966-2-4, SMPTE RP177
Transfer characteristics : BT.470-6 System M, NTSCNTSC im Glossar erklärt, FTC 73.682, BT.1700 625 PALPAL im Glossar erklärt, BT.1700 625 SECAM
Matrix coefficients : BT.601-6 525, BT.1358 525, BT.1700 NTSCNTSC im Glossar erklärt, SMPTE 170M

Nikon D800 Clips, funktionieren:

Format : MPEG-4
Format profile : QuickTime
Codec ID : qt
File size : 20.2 MiB
Duration : 15s 780ms
Overall bit rate : 10.7 Mbps
Encoded date : UTC 2015-08-16 08:29:13
Tagged date : UTC 2015-08-18 16:46:22
NCDT : NCTG

Video
ID : 1
Format : AVC
Format/Info : Advanced Video Codec
Format profile : High@L4.0
Format settings, CABAC : Yes
Format settings, ReFrames : 2 frames
Codec ID : avc1
Codec ID/Info : Advanced Video Coding
Duration : 15s 780ms
Bit rate mode : Variable
Bit rate : 9 138 Kbps
Width : 1 280 pixels
Height : 720 pixels
Display aspect ratio : 16:9
Frame rate mode : Constant
Frame rate : 50.000 fps
Color space : YUV
Chroma subsampling : 4:2:0
Bit depth : 8 bits
Scan type : Progressive
Bits/(Pixel*Frame) : 0.198
Stream size : 17.2 MiB (85%)
Language : English
Encoded date : UTC 2015-08-16 08:29:13
Tagged date : UTC 2015-08-16 08:29:13
Color primaries : BT.709-5, BT.1361, IEC 61966-2-4, SMPTE RP177
Transfer characteristics : BT.470-6 System M, NTSCNTSC im Glossar erklärt, FTC 73.682, BT.1700 625 PALPAL im Glossar erklärt, BT.1700 625 SECAM
Matrix coefficients : BT.601-6 525, BT.1358 525, BT.1700 NTSCNTSC im Glossar erklärt, SMPTE 170M

So richtig groß erscheint mir der Unterschied in den Codecs nicht. Hat jemand eine Idee, wie ich die Clips verlustfrei in mein Premiere bekomme?

Besten Dank,
T.



Antwort von Jörg:

Ändere mal die Dateiendung von .mov auf .mp4 bei einigen clips, wenn du auf win unterwegs bist.
Importiere diese.
Besser?




Noch was unklar? Dann in unserem Forum nachfragen
Zum Original-Thread / Zum Adobe Premiere Pro / Elements / SpeedGrade / Creative Cloud CC-Forum

Antworten zu ähnlichen Fragen:
Adobe Premiere Pro - Sortierung von Clips ohne Timecode - Brauche Hilfe bzw. Tipp
Importieren von Clips Adobe Premiere - Tonsur fehlt
Adobe Premiere Elements 13 zeigt Clips von Panasonic P2HD Kamera nicht an
Nikon D750 - Videos mit Adobe Premiere Pro CS5 bearbeiten
Premiere Pro CC 2014 - Skalieren von Clips
dv import in adobe premiere 1.5
Haken bei EBay-Kauf von Adobe Premiere Pro 1.5?
Adobe Premiere Pro - Position Skalieren von mehreren Bildern
Premiere Pro .mp4-Import: Rename zu .mov
iPhone 8 Plus Video - kein Import Premiere Pro CC
Premiere pro cc, Clips plötzlich gezoomt
Premiere Pro Source Clips sortieren
Media Encoder Import von Premiere
BRAW Import Plugin für Premiere Pro verfügbar
Clips in Premiere Pro CS 5.5 ohne Unterbrechung aneinanderreihen
Premiere Pro: Clips an einmalige Farbkorrektur anpassen
Premiere Pro CC importierte Clips sind entknüpft
Adobe Auto Frame für Premiere Pro: Automatisches Reframing von Videos für andere Seitenverhältnisse per AI // IBC 2019
Schnell Clips sichten und trimmen in Premiere Pro
Windows Premiere CS4 Crash nach Import von AVCHD files
Kein Bild, nur Ton bei File-Import : Premiere CS5 Pro / Windows 7
Messevideo: Neue Funktionen Adobe Premiere Pro u. bestes, verstecktes Pro-Feature // NAB 2018
Import Inspire2 cdng Clips in FCP
Premiere Pro 2018 CC: Zeitversatz bei Audio und Video nach dem Import einer .mov-Datei
Adobe Premiere Pro
adobe premiere pro 1.5

















weitere Themen:
Spezialthemen


16:9
3D
4K
ARD
ARTE
AVCHD
AVI
Adapter
Adobe After Effects
Adobe Premiere Pro
After effects
Akku
Akkus
Apple Final Cut Pro
Audio
Aufnahme
Aufnahmen
Avid
Band
Bild
Bit
Blackmagic
Blackmagic Design DaVinci Resolve
Blende
Book
Brennen
Cam
Camcorder
Camera
Canon
Canon EOS 5D MKII
Canon EOS C300
Capture
Capturing
Cinema
Clip
ClipKanal
Clips
Codec
Codecs
DSLR
Datei
Digital
ENG
EOS
Effect
Effekt
Effekte
Export
Fehler
Festplatte
File
Film
Filme
Filmen
Filter
Final Cut
Final Cut Pro
Firmware
Format
Formate
Foto
Frage
Frame
HDMI
HDR
Hilfe
Import
JVC
Kabel
Kamera
Kanal
Kauf
Kaufe
Kaufen
Kurzfilm
Layer
Licht
Live
Lösung
MAGIX video deLuxe
MPEG
MPEG-2
MPEG2
Mac
Magix
Magix Vegas Pro
Menü
Mikro
Mikrofon
Mikrophone
Monitor
Movie
Musik
Musikvideo
NAB
Nero
News
Nikon
Objektiv
Objektive
PC
Panasonic
Panasonic GH2
Panasonic HC-X1
Panasonic S1 mit V-Log
Pinnacle
Pinnacle Studio
Player
Plugin
Plugins
Premiere
Projekt
RAW
RED
Recorder
Red
Render
Rendern
Schnitt
Software
Sony
Sound
Speicher
Stativ
Stative
Streaming
Studio
TV
Test
Titel
Ton
USB
Umwandeln
Update
Vegas
Video
Video-DSLR
Videos
Videoschnitt
Windows
YouTube
Zoom

Specialsschraeg
10-27. Oktober / Berlin
DOKUARTS 12: Nuances Now
29. Oktober - 3. November / Lübeck
Nordische Filmtage Lübeck
1-2. November / Mainz
screening_019
7-10. November / Linz
Linz International Short Film Festival
alle Termine und Einreichfristen